Strona główna Darmowe ebooki Okazik Suchary




Wróć   pwaisbd.org - Recenzje Filmów i Gier, forum dyskusyjne pwaisbd.org X > pwaisbd.org FILMÓW > Filmy download > Polskie

Sortuj wg. gatunku

Odpowiedz
 
Narzędzia wątku Wygląd
stare 07-11-2012, 23:53   #1
Początkujący
 
Zarejestrowany: Nov 2012
Postów: 1
Domyślnie Katyń (2007)

Katyń (2007)



OPIS
Gdy 17 września 1939 roku armia radziecka wkroczyła do Polski, nieprzygotowana do walki na dwóch frontach armia II Rzeczpospolitej musiała ponieść klęskę. Wśród jeńców wojennych znalazło się kilkanaście tysięcy oficerów. Ich rodziny z utęsknieniem czekały na ich powrót. Nigdy on jednak nie nastąpił. Dzieło Andrzeja Wajdy ukazuje historie kobiet, które mimo upływu lat, ciągle czekały na powrót swych mężów, synów, braci i ojców, uwięzionych przez NKWD.

INFORMACJE
Gatutek: Wojenny, Dramat historyczny
Produkcja: Polska
Premiera: 21 września 2007 (Polska) 17 września 2007 (świat)
Reżyseria: Andrzej Wajda
Scenariusz: Andrzej Wajda, Władysław Pasikowski, Przemysław Nowakowski

DANE TECHNICZNE
Format : AVI
Format/Info : Audio Video Interleave
File size : 700 MiB
Duration : 1h 52mn
Overall bit rate : 866 Kbps
Video
ID : 0
Format : MPEG-4 Visual
Format profile : [email protected]
Format settings, BVOP : Yes
Format settings, QPel : No
Format settings, GMC : No warppoints
Format settings, Matrix : Custom
Codec ID : XVID
Codec ID/Hint : XviD
Duration : 1h 52mn
Bit rate : 745 Kbps
Width : 720 pixels
Height : 336 pixels
Display aspect ratio : 2.2:1
Frame rate : 25.000 fps
Resolution : 24 bits
Colorimetry : 4:2:0
Scan type : Progressive
Bits/(Pixel*Frame) : 0.123
Stream size : 602 MiB (86%)
Writing library : XviD 1.2.0.dev47 (UTC 2006-11-01)
Audio
ID : 1
Format : MPEG Audio
Format version : Version 1
Format profile : Layer 3
Codec ID : 55
Codec ID/Hint : MP3
Duration : 1h 52mn
Bit rate mode : Variable
Bit rate : 109 Kbps
Nominal bit rate : 128 Kbps
Channel(s) : 2 channels
Sampling rate : 48.0 KHz
Resolution : 16 bits
Video delay : 48ms
Stream size : 88.1 MiB (13%)
Alignment : Split accross interleaves
Interleave, duration : 24 ms (0.60 video frame)
Interleave, preload duration : 690 ms
Writing library : LAME3.97
Encoding settings : -m j -V 4 -q 2 -lowpass 17 --abr 128

SCREENY




DOWNLOAD


Post edytowany: dodanie filmu w pełnej wersji.
Otwórz film w nowym oknie i oglądaj do woli.
Melantiq jest nieaktywny   Odpowiedź z Cytatem

  #1.5
Angelika
Główna Księgowa ;)


Zarejestrowany: 21.09.2011
Postów: 2329
Skąd: Warszawa

Katyń (2007)


Katyń (2007)
Ludzieeee... !
Tego jeszcze nie widzieliście
Odpowiedz

Tagi
2007, katyń


Zasady Postowania
Nie możesz zakładać nowych tematów
Nie możesz pisać wiadomości
Nie możesz dodawać załączników
Nie możesz edytować swoich postów

BB Code jest Włączony
EmotikonyWłączony
[IMG] kod jest Włączony
HTML kod jest Wyłączony

Skocz do Forum



Czasy w strefie GMT +1. Teraz jest 15:06.


Administracja oraz moderatorzy serwisu pwaisbd.org nie ponoszą odpowiedzialności za treść wypowiedzi zamieszczanych przez użytkowników Forum.Osoby zamieszczające wypowiedzi naruszające prawo lub prawem chronione dobra osób trzecich mogą ponieść z tego tytułu odpowiedzialność karna lub cywilna.Tematy zamieszczane przez użytkowników nie są moderowane.Jeżeli zauważyłeś post/temat który jest niezgodny z polskim prawem proszę zgłosić go natychmiast do administracji.
Powered by vBulletin® Version 3.8.4
Copyright ©2000 - 2018, Jelsoft Enterprises Ltd.